MTV World Stage: J Cole • Wireless Festival [2018, Hip-Hop, HDTV, 1080i]

Страницы:  1

Ответить
Автор
Сообщение

meloman67

Moderator

Стаж: 10 лет 3 месяца

Сообщений: 6263

meloman67 · 07-Июн-19 11:04 (1 месяц 15 дней назад, ред. 07-Июн-19 11:32)


J Cole



Жанр: Hip-Hop
Продолжительность: 00:21:58
Год выпуска: 2018
Качество: HDTV
Разрешение видео/развертка: 1080i
Контейнер: TS
Видео кодек: H.264
Аудио кодек: AC3
Видео: MPEG4 Video (H264) 1920x1080 29.97fps 6 269 kb/s
Аудио: Dolby AC3 48000Hz stereo 192kbps
Треклист
ATM
Kevin's Heart
KOD
Love Yourz
No Role Modelz
Отчёт MediaInfo / BDInfo
General
ID : 1 (0x1)
Complete name : F:\J Cole - Wireless Festival 2018 .ts
Format : MPEG-TS
File size : 1.04 GiB
Duration : 21 min 58 s
Overall bit rate mode : Variable
Overall bit rate : 6 799 kb/s
Video
ID : 4128 (0x1020)
Menu ID : 5040 (0x13B0)
Format : AVC
Format/Info : Advanced Video Codec
Format profile : [email protected]
Format settings : CABAC / 3 Ref Frames
Format settings, CABAC : Yes
Format settings, ReFrames : 3 frames
Codec ID : 27
Duration : 21 min 58 s
Bit rate : 6 269 kb/s
Width : 1 920 pixels
Height : 1 080 pixels
Display aspect ratio : 16:9
Frame rate : 29.970 (30000/1001) FPS
Color space : YUV
Chroma subsampling : 4:2:0
Bit depth : 8 bits
Scan type : MBAFF
Scan type, store method : Interleaved fields
Scan order : Top Field First
Bits/(Pixel*Frame) : 0.101
Stream size : 985 MiB (92%)
Audio
ID : 4130 (0x1022)
Menu ID : 5040 (0x13B0)
Format : AC-3
Format/Info : Audio Coding 3
Commercial name : Dolby Digital
Codec ID : 129
Duration : 21 min 58 s
Bit rate mode : Constant
Bit rate : 192 kb/s
Channel(s) : 2 channels
Channel layout : L R
Sampling rate : 48.0 kHz
Frame rate : 31.250 FPS (1536 SPF)
Bit depth : 16 bits
Compression mode : Lossy
Stream size : 30.2 MiB (3%)
Language : English
Service kind : Complete Main
Скриншоты
Download
Для скачивания .torrent файлов необходима регистрация
Сайт не распространяет и не хранит электронные версии произведений, а лишь предоставляет доступ к создаваемому пользователями каталогу ссылок на торрент-файлы, которые содержат только списки хеш-сумм
[Профиль]  [ЛС] 
 
Ответить
Loading...
Error