Сказочный патруль / Сезоны: 1-2 / Серии: 1-31 из 52 (Наиль Мубинов, Андрей Колпин) [2016-2019, Россия, Приключения, WEBRip 1080p]

Страницы:  1

Ответить
Автор
Сообщение

Disturbed_all

Стаж: 10 лет 1 месяц

Сообщений: 358

Disturbed_all · 03-Июн-19 18:08 (1 месяц 19 дней назад, ред. 09-Июл-19 04:51)

Сказочный патруль / Сказочный патруль
Страна: Россия
Жанр: Приключения
Продолжительность серии: 00:11:00
Год выпуска: 2016-2019
Перевод: Не требуется
Русские субтитры: нет
Режиссёр: Андрей Колпин
Роли озвучивали: Мирослава Карпович, Полина Кутепова, Ольга Кузьмина, Юлия Александрова, Иван Жвакин, Ёла Санько, Диомид Виноградов, Даниил Эльдаров
Описание: Анимационный сериал «Сказочный Патруль» рассказывает о невероятных, захватывающих приключениях четырех юных волшебниц: Аленки, Вари, Маши и Снежки.
Три подруги приезжают в заповедник сказок - город Мышкин - и знакомятся с местной девочкой Аленкой. Пройдя ряд испытаний и преодолев разногласия, девочки становятся настоящими подругами. Они создают команду для контроля над сказочными силами ради спокойствия в мире людей.
Список серий:
скрытый текст
1 Знакомство
2 Кошки - мышки
3 Танцуют все!
4 Как стать звездой
5 Загадай желание!
6 Всё под контролем!
7 Кто в теремочке живёт
8 Гори - гори ясно!
9 Всё кувырком
10 Большой день
11 У четырёх нянек
12 Зазеркалье
13 Пророчество
14 Подарок подземелья
15 Королева бала
16 Под водой
17 Возвращение зайки
18 Волшебный лес
19 Бело-Снежка
20 Маскарад
21 Огненный гость
22 Снежная королева
23 Ди-джей
24 Лучшие друзья
25 Долгие сборы
26 Тайна лукоморья
27 Волшебный город
28 Сказочник
29 Волшебный мир, встречай!
30 Горшочек, не вари
31 Волшебная ботаника
Качество: WEBRip
Формат: MKV
Видео: AVC/H.264, 1920Х1080, 25 fps, ~2000 Kbps
Аудио: AAC, 44100 Hz, 2 ch, 128 Kbps
Субтитры: отсутствуют
Подробные технические данные
General
Unique ID : 179035986891176372932016014352214855410 (0x86B113AAFA4F1AE886E9C8AF7FA30EF2)
Complete name : F:\Video\Сказочный патруль 2016-2019 WEBRip 1080p\30. Сказочный патруль. Горшочек, не вари.mkv
Format : Matroska
Format version : Version 4
File size : 138 MiB
Duration : 11 min 0 s
Overall bit rate : 1 757 kb/s
Encoded date : UTC 2019-05-12 16:00:40
Writing application : mkvmerge v8.3.0 ('Over the Horizon') 64bit
Writing library : libebml v1.3.1 + libmatroska v1.4.2
Video
ID : 1
Format : AVC
Format/Info : Advanced Video Codec
Format profile : [email protected]
Format settings : CABAC / 3 Ref Frames
Format settings, CABAC : Yes
Format settings, Reference : 3 frames
Codec ID : V_MPEG4/ISO/AVC
Duration : 10 min 59 s
Bit rate : 1 626 kb/s
Width : 1 920 pixels
Height : 1 080 pixels
Display aspect ratio : 16:9
Frame rate mode : Constant
Frame rate : 25.000 FPS
Color space : YUV
Chroma subsampling : 4:2:0
Bit depth : 8 bits
Scan type : Progressive
Bits/(Pixel*Frame) : 0.031
Stream size : 128 MiB (93%)
Writing library : x264 core 155 r2901 7d0ff22
Default : Yes
Forced : No
Color range : Limited
Color primaries : BT.709
Transfer characteristics : BT.709
Matrix coefficients : BT.709
Audio
ID : 2
Format : AAC LC
Format/Info : Advanced Audio Codec Low Complexity
Codec ID : A_AAC-2
Duration : 11 min 0 s
Bit rate : 128 kb/s
Channel(s) : 2 channels
Channel layout : L R
Sampling rate : 44.1 kHz
Frame rate : 43.066 FPS (1024 SPF)
Compression mode : Lossy
Stream size : 10.1 MiB (7%)
Language : English
Default : Yes
Forced : No
Скриншоты



Сказочный патруль 720p от многоуважаемой Наталии
Предыдущие и альтернативные раздачи
Download
Для скачивания .torrent файлов необходима регистрация
Сайт не распространяет и не хранит электронные версии произведений, а лишь предоставляет доступ к создаваемому пользователями каталогу ссылок на торрент-файлы, которые содержат только списки хеш-сумм
[Профиль]  [ЛС] 

15_ac-109

Стаж: 2 года 10 месяцев

Сообщений: 5


15_ac-109 · 27-Июн-19 18:04 (спустя 23 дня)

А оригинальная дорожка есть чтоб с субтитрами? шютка
Классный мульт, дочка смотрит, да и для взрослых сюжет достаточно неплох.
[Профиль]  [ЛС] 

Disturbed_all

Стаж: 10 лет 1 месяц

Сообщений: 358

Disturbed_all · 01-Июл-19 16:43 (спустя 3 дня)

15_ac-109
Согласен с вами
[Профиль]  [ЛС] 

Disturbed_all

Стаж: 10 лет 1 месяц

Сообщений: 358

Disturbed_all · 09-Июл-19 04:53 (спустя 7 дней)

Добавлена серия 31, изменений в файлах нет
[Профиль]  [ЛС] 
 
Ответить
Loading...
Error