[С.Гиллиген, Р.Дилтс] Генеративный коучинг [2016, Коучинг, Психология, CAMRip, RUS] (Тренинг)

Страницы:  1

Ответить
Автор
Сообщение

golovapusta

Стаж: 6 лет 7 месяцев

Сообщений: 40

golovapusta · 16-Мар-18 20:19 (1 год 4 месяца назад, ред. 22-Мар-18 23:42)

Генеративный коучинг (2016)
Автор: [С.Гиллиген, Р.Дилтс]
Страна: Россия
Тематика: Коучинг, Психология
Тип раздаваемого материала: Тренинг
Продолжительность: 32 ч. 57 мин.
Год выпуска: 2016
Язык: Русский
Язык субтитров: -
Ссылка на видеокурс на сайте производителя: http://gilligandilts.ru/
Описание:
От себя скажу, что если вы искали ответ на какой-либо вопрос (по любой сфере), но ответа так и не нашли, то, уверен, искать более не придется, потому что этот один курс - именно то, что вам нужно, поверьте ! ay
И не забудьте отблагодарить авторов, как угодно. Если бы не их труд (и тоже самое касается любого другого курса), ничего бы этого не было!
Генеративные изменения – это создание того, что никогда не существовало раньше, будь то в личной или в профессиональной жизни человека. Это – не просто изменения первого порядка, а обучение тому, как учиться новым способом. Это контекстуальный сдвиг, который способствует новым уровням мастерства.
В переводе с английского языка «генеративный» означает «порождающий». В самом деле, Генеративный подход – это творческий подход к жизни.
Для того, чтобы жить необыкновенную жизнь, мы должны отвечать на вопросы:
• Как создавать успешную и осмысленную жизнь в профессиональной сфере?
• Как создавать замечательные личные отношения?
• Как развивать плодотворные отношения с самим собой – своим телом, своим прошлым и будущим, своими ранами и своими дарованиями?
И Генеративный Коучинг предлагает творческий и практический путь, чтобы преуспеть в этом.
В отличие от обычного коучинга, Генеративный Коучинг воспринимает кризисы и угрозы идентичности как возможности для глубоких личностных изменений. Генеративный Коучинг предполагает, что мы сами конструируем свою реальность – и мы можем осознанно направить этот процесс на положительные результаты. Но, для этого необходимо генеративное состояние. То есть, состояние – это «различие, создающее различия» в жизни человека. Чем более ресурсное состояние, тем больше мы можем реализовывать свои мечты.
Генеративный Коучинг – гораздо больше, чем просто решение проблемы. Он показывает человеку, как жить жизнь как приключение, поддерживая генеративное состояние, чтобы использовать препятствия, возникающие на творческом пути, и, тем самым, достичь новых и значимых результатов
Качество: CAMRip
Формат: MP4
Технические данные видео
Format : MPEG-4
Format profile : Base Media / Version 2
Codec ID : mp42
File size : 567 MiB
Duration : 1h 17mn
Overall bit rate mode : Variable
Overall bit rate : 1 019 Kbps
Encoded date : UTC 2017-02-23 17:26:08
Tagged date : UTC 2017-02-23 17:26:08
Writing application : HandBrake 1.0.1 2016122900
Video
ID : 1
Format : AVC
Format/Info : Advanced Video Codec
Format profile : [email protected]
Format settings, CABAC : Yes
Format settings, ReFrames : 4 frames
Codec ID : avc1
Codec ID/Info : Advanced Video Coding
Duration : 1h 17mn
Bit rate : 885 Kbps
Width : 720 pixels
Height : 576 pixels
Display aspect ratio : 16:9
Frame rate mode : Variable
Frame rate : 25.000 fps
Minimum frame rate : 12.500 fps
Maximum frame rate : 25.000 fps
Standard : PAL
Color space : YUV
Chroma subsampling : 4:2:0
Bit depth : 8 bits
Scan type : Progressive
Bits/(Pixel*Frame) : 0.085
Stream size : 493 MiB (87%)
Writing library : x264 core 148 r2708 86b7198
Encoding settings : cabac=1 / ref=2 / deblock=1:0:0 / analyse=0x1:0x111 / me=hex / subme=6 / psy=1 / psy_rd=1.00:0.00 / mixed_ref=1 / me_range=16 / chroma_me=1 / trellis=1 / 8x8dct=0 / cqm=0 / deadzone=21,11 / fast_pskip=1 / chroma_qp_offset=-2 / threads=12 / lookahead_threads=2 / sliced_threads=0 / nr=0 / decimate=1 / interlaced=0 / bluray_compat=0 / constrained_intra=0 / bframes=3 / b_pyramid=2 / b_adapt=1 / b_bias=0 / direct=1 / weightb=1 / open_gop=0 / weightp=1 / keyint=250 / keyint_min=25 / scenecut=40 / intra_refresh=0 / rc_lookahead=30 / rc=crf / mbtree=1 / crf=22.0 / qcomp=0.60 / qpmin=0 / qpmax=69 / qpstep=4 / vbv_maxrate=20000 / vbv_bufsize=25000 / crf_max=0.0 / nal_hrd=none / filler=0 / ip_ratio=1.40 / aq=1:1.00
Encoded date : UTC 2017-02-23 17:26:08
Tagged date : UTC 2017-02-23 17:26:08
Color range : Limited
Color primaries : BT.709
Transfer characteristics : BT.709
Matrix coefficients : BT.709
Audio
ID : 2
Format : AAC
Format/Info : Advanced Audio Codec
Format profile : LC
Codec ID : 40
Duration : 1h 17mn
Bit rate mode : Variable
Bit rate : 127 Kbps
Channel(s) : 2 channels
Channel positions : Front: L R
Sampling rate : 48.0 KHz
Compression mode : Lossy
Stream size : 70.9 MiB (12%)
Title : Stereo / Stereo
Language : English
Encoded date : UTC 2017-02-23 17:26:08
Tagged date : UTC 2017-02-23 17:26:08
Скриншоты
Download
Для скачивания .torrent файлов необходима регистрация
Сайт не распространяет и не хранит электронные версии произведений, а лишь предоставляет доступ к создаваемому пользователями каталогу ссылок на торрент-файлы, которые содержат только списки хеш-сумм
[Профиль]  [ЛС] 

Маргаритkа

Admin

Стаж: 11 лет 11 месяцев

Сообщений: 9343

Маргаритkа · 16-Мар-18 23:57 (спустя 3 часа)

golovapusta писал(а):
74997662Язык: Русский
Перевод: Профессиональный (одноголосый)
Если язык русский, то откуда перевод?
Следует уменьшить постер.
Учитывайте, что минимальный размер картинки должен составлять 200x200 pixels, максимальный 500x600 pixels. Информацию по изготовлению постера для раздачи можно получить по ссылке.
Необходимо более точно указать данные по аудио и видео параметрам раздачи.
Информацию по определению техданных видеофайла можно получить по ссылке.
Разрешение скриншотов не совпадает с разрешением указанным в раздаче.
Обязательна публикация скриншотов (не менее 3х, в виде превью), имеющих РАЗРЕШЕНИЕ ОРИГИНАЛА раздаваемого видео. Информацию по изготовлению скриншотов можно получить по ссылке.
Дооформите, пожалуйста.
О дооформленных раздачах просьба сообщать в ЛС с пометкой "Дооформлено" и ссылкой на раздачу.
[Профиль]  [ЛС] 

34коровы

Стаж: 7 лет 3 месяца

Сообщений: 5


34коровы · 21-Мар-18 14:26 (спустя 4 дня)

Дилтс то тоже стареет... Очень непривычно видеть его сегодняшним)
[Профиль]  [ЛС] 

mr_Heisenberg

Стаж: 6 лет 7 месяцев

Сообщений: 6


mr_Heisenberg · 30-Мар-18 01:15 (спустя 8 дней, ред. 30-Мар-18 01:15)

Добавьте, пожалуйста, файл 2.1
Нет не у кого случайно книги Гиллигена "Генеративный транс. Опыт творческого потока"?
Если есть, скиньте, пожалуйста.
[Профиль]  [ЛС] 

TimZ

Стаж: 11 лет 9 месяцев

Сообщений: 13


TimZ · 22-Апр-18 11:03 (спустя 23 дня)

34коровы были значит на Дилтсе вчера? и что сумели из тренинга вынести, кроме того что Дилтс стареет?
коллеги, встаньте на раздачу, пож-та. третью неделю раскачивается.
[Профиль]  [ЛС] 

34коровы

Стаж: 7 лет 3 месяца

Сообщений: 5


34коровы · 26-Апр-18 02:10 (спустя 3 дня, ред. 26-Апр-18 02:10)

TimZ
Сумел вынести отторжение к затеванию срачей в комментариях
[Профиль]  [ЛС] 

deviles2006

Стаж: 11 лет 6 месяцев

Сообщений: 16


deviles2006 · 14-Июн-18 09:09 (спустя 1 месяц 18 дней)

Молю ребят, встаньте кто-нибудь на раздачу , пожалуйста
[Профиль]  [ЛС] 

Fruchta.

Стаж: 12 лет 3 месяца

Сообщений: 40

Fruchta. · 16-Июн-18 23:12 (спустя 2 дня 14 часов)

Посмотрел первые два видео. Очень, ну очень много воды. Идея в том, чтобы с клиентом настроить глубокий раппорт и ввести в состояние спокойствия, активности, уверенности, лёгкости или всё вместе. А дальше терапия. Есть ты, есть клиент, в одном и том же состоянии - пошла работа.
В итоге такой коучинг, только эффективный и осознанный, в лёгком или среднем трансе.
[Профиль]  [ЛС] 

Dan_2

Стаж: 12 лет 4 месяца

Сообщений: 1


Dan_2 · 21-Июл-18 16:09 (спустя 1 месяц 4 дня)

Кто знаешь - Это точно полная версия тренинга? Как минимум отсутствует видео 2.1
[Профиль]  [ЛС] 

Ahilless124

Стаж: 8 лет 6 месяцев

Сообщений: 46


Ahilless124 · 11-Авг-18 20:26 (спустя 21 день)

В 2.1 есть хорошее упражнение - 3 семечки, ради него стоит поискать эту часть.
[Профиль]  [ЛС] 
 
Ответить
Loading...
Error