Алуника Добровольская - 10 сильных целей. Магический путь [2015, психология, женщины, WEBRip, RUS] (Видеоурок)

Страницы:  1

Ответить
Автор
Сообщение

Маргаритkа

Admin

Стаж: 11 лет 11 месяцев

Сообщений: 9343

Маргаритkа · 21-Июн-17 02:51 (2 года 1 месяц назад)

Алуника Добровольская - 10 сильных целей. Магический путь
Страна: Россия
Тематика: психология, женщины
Тип раздаваемого материала: Видеоурок
Год выпуска: 2015
Язык: Русский
Перевод: Не требуется
Об авторе: Алуника Добровольская — трансформационный коуч — называет себя консультантом умных и красивых женщин. Алуника разработала собственную систему психологической помощи людям и в течение многих лет приезжает с тренингами в разные страны. Среди тем, которые мастерски поднимает Алуника, — личные отношения, целеполагание, успешное развитие бизнеса, архетипное восприятие действительности, защита от «токсичных» взаимоотношений.
Девиз программы: Помоги своим целям стать реальностью.
Цель программы: Помочь вам выстроить систему СВОИХ самодостигающихся целей так, чтобы через год вы смогли жить в другой реальности.
Это не просто программа о том, как ставить и достигать целей. Это программа о том, какие мистические инструменты может применять женщина, чтобы получать то, что хочет от жизни.
После просмотра и изучения программы вы:
  1. с помощью специальной технологии работы с подсознанием выявите СВОИ ОСНОВНЫЕ ЦЕННОСТИ
  2. с помощью личной иерархии ценностей выстроите в сознании цепочку ОСОБЫХ целей
  3. запрограммируете себя на успешный результат
  4. получите техники для фильтрации своих целей (выброс спама из вирусов из головы)
После просмотра программы, вы поймете:
  1. Как найти свою цель, а не обслуживать цели других?
  2. Почему мы никак не можем достичь поставленных целей, даже при большом желании и уверенности в себе?
  3. Почему у нас часто не получается стать такими, как хочется?
  4. Почему, обучаясь чему-то, мы не применяем это на практике, даже понимая, что это очень полезно?
  5. Почему, применяя чужие рецепты, мы получаем совсем не те результаты, которые бы хотели?
  6. Что нужно изменить в себе, чтобы цели достигались легко и быстро? Как это сделать?
К сожалению, качеством нас не балуют, курс предоставлен именно так, как куплен у автора.
Продолжительность: ~02:32:07
Качество: WEBRip
Формат: MP4
Видео кодек: H.264
Аудио кодек: AAC
Видео: MPEG4 Video (H264) 640x480 25fps 434kbps
Аудио: AAC 44100Hz stereo 125kbps
MediaInfo
General
Complete name : D:\rd\Алуника Добровольская - 10 сильных целей. Магический путь\Десять Сильных Целей. Магический путь.mp4
Format : MPEG-4
Format profile : Base Media
Codec ID : isom
File size : 620 MiB
Duration : 2h 32mn
Overall bit rate : 566 Kbps
Writing application : Lavf57.2.100
Video
ID : 1
Format : AVC
Format/Info : Advanced Video Codec
Format profile : [email protected]
Format settings, CABAC : Yes
Format settings, ReFrames : 3 frames
Codec ID : avc1
Codec ID/Info : Advanced Video Coding
Duration : 2h 32mn
Bit rate : 434 Kbps
Width : 640 pixels
Height : 480 pixels
Display aspect ratio : 4:3
Frame rate mode : Constant
Frame rate : 25.000 fps
Color space : YUV
Chroma subsampling : 4:2:0
Bit depth : 8 bits
Scan type : Progressive
Bits/(Pixel*Frame) : 0.057
Stream size : 475 MiB (77%)
Audio
ID : 2
Format : AAC
Format/Info : Advanced Audio Codec
Format profile : LC
Codec ID : 40
Duration : 2h 32mn
Bit rate mode : Constant
Bit rate : 126 Kbps
Channel(s) : 2 channels
Channel positions : Front: L R
Sampling rate : 44.1 KHz
Compression mode : Lossy
Stream size : 137 MiB (22%)
Скриншоты
Download
Для скачивания .torrent файлов необходима регистрация
Сайт не распространяет и не хранит электронные версии произведений, а лишь предоставляет доступ к создаваемому пользователями каталогу ссылок на торрент-файлы, которые содержат только списки хеш-сумм
[Профиль]  [ЛС] 

menavik

Стаж: 8 лет 8 месяцев

Сообщений: 2

menavik · 21-Июл-17 18:20 (спустя 1 месяц)

Подкиньте угля, господа! (:
[Профиль]  [ЛС] 

СуперТаша

Стаж: 2 года 6 месяцев

Сообщений: 1


СуперТаша · 13-Окт-17 15:52 (спустя 2 месяца 22 дня)

Это замечательный тренинг. Очень понравился. Огромное Спасибо раздающему.
[Профиль]  [ЛС] 

PolinaLeschinskaya

Стаж: 8 лет 5 месяцев

Сообщений: 5


PolinaLeschinskaya · 10-Мар-18 08:58 (спустя 4 месяца 27 дней)

О Боже, Ваши раздачи бесценны!!!! Успехов и небесных пирожков!
[Профиль]  [ЛС] 

nadinsv

Стаж: 10 месяцев

Сообщений: 2


nadinsv · 01-Сен-18 15:36 (спустя 5 месяцев 22 дня)

СуперТаша писал(а):
74007309Это замечательный тренинг. Очень понравился. Огромное Спасибо раздающему.
друзья, и правда, есть ли кто на раздаче-то?))
[Профиль]  [ЛС] 

mainstream17

Стаж: 8 лет 1 месяц

Сообщений: 7


mainstream17 · 29-Ноя-18 15:19 (спустя 2 месяца 27 дней)

Оч классный тренинг, много взяла на вооружение. У не етсьновая версия это тренинга, интересно, появилось ли там что-то новенько.
[Профиль]  [ЛС] 

Ilywkaaa

Стаж: 5 лет 6 месяцев

Сообщений: 3


Ilywkaaa · 20-Дек-18 11:29 (спустя 20 дней)

Маргаритkа, отдельно хочу поблагодарить тебя !! Спасибо тебе большое за отличную подборку по "Алуника Добровольска" которую ты сделала и выложила .. ты единственная пока на пространстве рутрекера кто поделился .. если можно тебя как-то отблагодарить , сообщи
[Профиль]  [ЛС] 

PolinaLeschinskaya

Стаж: 8 лет 5 месяцев

Сообщений: 5


PolinaLeschinskaya · 20-Дек-18 12:23 (спустя 54 мин.)

Присоединяюсь к предыдущему оратору Огромное спасибо!
[Профиль]  [ЛС] 
 
Ответить
Loading...
Error