Алуника Добровольская - Как давать ему нужное и получать желаемое [2016, психология, женщины, CAMRip, RUS] (Видеоурок)

Страницы:  1

Ответить
Автор
Сообщение

Маргаритkа

Admin

Стаж: 11 лет 11 месяцев

Сообщений: 9343

Маргаритkа · 06-Июн-17 02:58 (2 года 1 месяц назад)

Алуника Добровольская - Как давать ему нужное и получать желаемое
Страна: Россия
Тематика: психология, женщины
Тип раздаваемого материала: Видеоурок
Год выпуска: 2016
Язык: Русский
Перевод: Не требуется
Об авторе: Алуника Добровольская — трансформационный коуч — называет себя консультантом умных и красивых женщин. Алуника разработала собственную систему психологической помощи людям и в течение многих лет приезжает с тренингами в разные страны. Среди тем, которые мастерски поднимает Алуника, — личные отношения, целеполагание, успешное развитие бизнеса, архетипное восприятие действительности, защита от «токсичных» взаимоотношений.
Полностью практическая тренинг программа, наполненная самыми эффективными техниками НЛП, женского мягкого гипноза и любовной мистики.
Девиз программы: Читай его, как книгу, понимай его без слов, управляй им мягко и точно.
Цель программы: Научить женщину быстро понимать, что же нужно мужчине.
ДЛЯ КОГО:
  1. Если вы еще в поиске, но уже примерно знаете, КАКОГО мужчину хотите встретить
  2. Если вы только познакомились и хочется влюбить его в себя быстрее и сильнее
  3. Если вас тянет друг к другу, как магнитом, но вы чувствуете, что вы во многом разные
  4. Если вы вместе уже много лет, но настоящей близости так и нет и с каждым годом и месяцем вы все дальше друг от друга
  5. Вы узнаете простые и действенные способы сделать вас гораздо ближе друг к другу. И еще ближе!
Пройдя программу, вы узнаете:
  1. Что ни в коем случае нельзя говорить и делать в отношениях?
  2. Какие фатальные ошибки совершает большинство девушек?
  3. Как вести себя при знакомстве или в начале разговора?
  4. Как быстро считывать его ценности?
  5. Способы мягкого женского гипнотического внушения?
  6. Как защищаться от негативного воздействия наилучшим для себя образом?
  7. Как влиять на НЕГО быстро, незаметно и со 100% гарантией успеха?
  8. Какие способы управления мужчиной сработают лично у вас лучше всего?
К сожалению, качеством нас не балуют, курс предоставлен именно так, как куплен у автора.
Продолжительность: 03:30:41
Качество: CAMRip
Формат: MP4
Видео кодек: H.264
Аудио кодек: AAC
Видео: MPEG4 Video (H264) 640x356 25fps 274kbps
Аудио: AAC 44100Hz stereo 96kbps
MediaInfo
General
Complete name : D:\rd\Алуника Добровольская - Как давать ему нужное и получать желаемое\Как давать ему нужное и получать желаемое. 1 часть.mp4
Format : MPEG-4
Format profile : Base Media / Version 2
Codec ID : mp42
File size : 276 MiB
Duration : 1h 43mn
Overall bit rate mode : Variable
Overall bit rate : 372 Kbps
Encoded date : UTC 2015-01-27 20:55:38
Tagged date : UTC 2015-01-27 20:55:38
gsst : 0
gstd : 6223086
Video
ID : 1
Format : AVC
Format/Info : Advanced Video Codec
Format profile : [email protected]
Format settings, CABAC : No
Format settings, ReFrames : 1 frame
Format settings, GOP : M=1, N=60
Codec ID : avc1
Codec ID/Info : Advanced Video Coding
Duration : 1h 43mn
Bit rate : 274 Kbps
Maximum bit rate : 893 Kbps
Width : 640 pixels
Height : 356 pixels
Display aspect ratio : 16:9
Frame rate mode : Constant
Frame rate : 25.000 fps
Color space : YUV
Chroma subsampling : 4:2:0
Bit depth : 8 bits
Scan type : Progressive
Bits/(Pixel*Frame) : 0.048
Stream size : 203 MiB (74%)
Tagged date : UTC 2015-01-27 20:55:59
Audio
ID : 2
Format : AAC
Format/Info : Advanced Audio Codec
Format profile : LC
Codec ID : 40
Duration : 1h 43mn
Bit rate mode : Variable
Bit rate : 96.0 Kbps
Maximum bit rate : 103 Kbps
Channel(s) : 2 channels
Channel positions : Front: L R
Sampling rate : 44.1 KHz
Compression mode : Lossy
Stream size : 71.2 MiB (26%)
Title : IsoMedia File Produced by Google, 5-11-2011
Encoded date : UTC 2015-01-27 20:55:50
Tagged date : UTC 2015-01-27 20:55:59
Скриншоты
Download
Для скачивания .torrent файлов необходима регистрация
Сайт не распространяет и не хранит электронные версии произведений, а лишь предоставляет доступ к создаваемому пользователями каталогу ссылок на торрент-файлы, которые содержат только списки хеш-сумм
[Профиль]  [ЛС] 

mainstream17

Стаж: 8 лет 1 месяц

Сообщений: 7


mainstream17 · 03-Фев-19 13:50 (спустя 1 год 7 месяцев)

Очень интересный тренинг, много полезной информации для применения не только в личной жизни, а в любой коммуникации.
[Профиль]  [ЛС] 
 
Ответить
Loading...
Error