Rihanna - Bitch Better Have My Money (LPCM-Master-ProRes-1080p) [2015, Hip hop, Master, 1080p]

Страницы:  1

Ответить
Автор
Сообщение

Mar12gosha

Стаж: 5 лет 8 месяцев

Сообщений: 78


Mar12gosha · 06-Июн-18 20:44 (1 год 1 месяц назад, ред. 06-Июн-18 20:55)

Rihanna - Bitch Better Have My Money (LPCM-Master-ProRes-1080p)
Жанр: Hip hop
Продолжительность: 07:01
Год выпуска: 2015
Качество: Master
Разрешение видео/развертка: 1080p
Контейнер: MOV
Видео кодек: Apple ProRes
Аудио кодек: PCM
Видео: APCH422HQ, 1920*1080p, 158 Mbps, 23.976 fps
Аудио: LPCM, 1 536 Kbps, 48.0 KHz, 2 channels
Отчёт MediaInfo / BDInfo
General
Complete name : D:\Rihanna - Bitch Better Have My Money (LPCM-Master-ProRes-1080p).mov
Format : MPEG-4
Format profile : QuickTime
Codec ID : qt 2005.03 (qt )
File size : 7.83 GiB
Duration : 7 min 1 s
Overall bit rate mode : Variable
Overall bit rate : 160 Mb/s
Encoded date : UTC 2015-07-01 10:24:21
Tagged date : UTC 2015-07-06 20:25:27
Writing library : Apple QuickTime 7.7.1
com.apple.quicktime.player. : (Binary)
TIM : 00:00:11:19
TSC : 24000
TSZ : 1001
Video
ID : 1
Format : ProRes
Format version : Version 0
Format profile : 422 HQ
Codec ID : apch
Duration : 7 min 1 s
Bit rate mode : Variable
Bit rate : 158 Mb/s
Width : 1 920 pixels
Height : 1 080 pixels
Display aspect ratio : 16:9
Frame rate mode : Constant
Frame rate : 23.976 (24000/1001) FPS
Color space : YUV
Chroma subsampling : 4:2:2
Scan type : Progressive
Bits/(Pixel*Frame) : 3.177
Stream size : 7.76 GiB (99%)
Writing library : Apple
Language : English
Encoded date : UTC 2015-07-01 10:24:21
Tagged date : UTC 2015-07-01 10:25:26
Color primaries : BT.709
Transfer characteristics : BT.709
Matrix coefficients : BT.709
matrix_coefficients_Origina : BT.709
Audio
ID : 2
Format : PCM
Format settings : Little / Signed
Codec ID : sowt
Duration : 7 min 1 s
Bit rate mode : Constant
Bit rate : 1 536 kb/s
Channel(s) : 2 channels
Channel positions : Front: L R
Sampling rate : 48.0 kHz
Bit depth : 16 bits
Stream size : 77.2 MiB (1%)
Language : English
Encoded date : UTC 2015-07-01 10:24:21
Tagged date : UTC 2015-07-06 20:25:27
Text #1
ID : 4-CC1
Format : EIA-608
Muxing mode : Final Cut / CDP
Codec ID : c708
Duration : 7 min 1 s
Bit rate mode : Constant
Stream size : 0.00 Byte (0%)
Language : English
Forced : No
Encoded date : UTC 2015-07-01 10:24:21
Tagged date : UTC 2015-07-01 10:25:26
CaptionServiceName : CC1
Text #2
ID : 4-1
Format : EIA-708
Muxing mode : Final Cut / CDP
Codec ID : c708
Duration : 7 min 1 s
Bit rate mode : Constant
Stream size : 0.00 Byte (0%)
Language : English
Forced : No
Encoded date : UTC 2015-07-01 10:24:21
Tagged date : UTC 2015-07-01 10:25:26
Other
ID : 3
Type : Time code
Format : QuickTime TC
Duration : 7 min 1 s
Time code of first frame : 00:00:11:19
Time code, striped : Yes
Language : English
Encoded date : UTC 2015-07-01 10:24:21
Tagged date : UTC 2015-07-01 10:25:26
Скриншоты
Download
Для скачивания .torrent файлов необходима регистрация
Сайт не распространяет и не хранит электронные версии произведений, а лишь предоставляет доступ к создаваемому пользователями каталогу ссылок на торрент-файлы, которые содержат только списки хеш-сумм
[Профиль]  [ЛС] 

zonderss

Стаж: 12 лет 2 месяца

Сообщений: 39

zonderss · 03-Июл-18 21:42 (спустя 27 дней)

не пойму, зачем выкладывать, если не можешь раздать файл хотя бы одному несколько дней подряд... отстой какой-то.
[Профиль]  [ЛС] 

batuk1806

Стаж: 4 года 3 месяца

Сообщений: 51

batuk1806 · 28-Дек-18 18:17 (спустя 5 месяцев 24 дня, ред. 28-Дек-18 18:17)

А клип Rihanna & DJ Khaled, Bryson Tiller - Wild thoughts (2017) у Вас в таком же качестве есть?
[Профиль]  [ЛС] 
 
Ответить
Loading...
Error